XviD/DivX / Akcja
Acts of Violence *2018* [720p] [WEB-DL] [XviD] [AC3] [FGT] [ENG]


Dodał: Uploader
Data dodania:
2018-01-12 19:45:08
Rozmiar: 2.54 GB
Ostat. aktualizacja:
2018-01-31 19:02:58
Seedów: 114
Peerów: 6


Komentarze: 0

...( Info )...

Produkcja: Kanada, USA
Gatunek: Dramat, Akcja
Premiera: 12 stycznia 2018 (świat)
Reżyseria: Brett Donowho
Scenariusz: Nicolas Mezzanatto

...( Opis )...

Kiedy jego nazeczona zostaje porwana przez handlarzy ludzmi, Roman (Ashton Holmes) i jego bracia z wojska zamierzaja ja odnalezc i uratowac zanim bedzie za pozno. Po drodze Roman poznaje Avery'ego (Bruce Willis), policjanta ktory zajmuje sie sprawami zwiazanymi z handlem ludzmi i zwalczanie korupcji.

...( Obsada )...

★ Bruce Willis .... Detektyw James Avery
★ Cole Hauser .... Deklan
★ Shawn Ashmore .... Brandon
★ Ashton Holmes .... Roman
★ Melissa Bolona .... Mia
★ Sean Brosnan .... Vince
★ Sophia Bush .... Detektyw Brooke Baker
★ Mike Epps .... Max Livingston

...( Dane Techniczne )...

Video
ID : 0
Format : MPEG-4 Visual
Format profile : Simple@L5
Format settings, BVOP : No
Format settings, QPel : No
Format settings, GMC : No warppoints
Format settings, Matrix : Default (H.263)
Codec ID : XVID
Codec ID/Hint : XviD
Duration : 1 h 26 min
Bit rate : 3 799 kb/s
Width : 1 280 pixels
Height : 530 pixels
Display aspect ratio : 2.40:1
Frame rate : 23.976 (24000/1001) FPS
Color space : YUV
Chroma subsampling : 4:2:0
Bit depth : 8 bits
Scan type : Progressive
Compression mode : Lossy
Bits/(Pixel*Frame) : 0.234
Stream size : 2.30 GiB (91%)
Writing library : Lavc58.1.100

Audio
ID : 1
Format : AC-3
Format/Info : Audio Coding 3
Codec ID : 2000
Duration : 1 h 26 min
Bit rate mode : Constant
Bit rate : 384 kb/s
Channel(s) : 6 channels
Channel positions : Front: L C R, Side: L R, LFE
Sampling rate : 48.0 kHz
Frame rate : 31.250 FPS (1536 SPF)
Bit depth : 16 bits
Compression mode : Lossy
Stream size : 238 MiB (9%)
Alignment : Aligned on interleaves
Interleave, duration : 42 ms (1.00 video frame)
Interleave, preload duration : 512 ms
Service kind : Complete Main

Lista plików Show/Hide [Pokaż/Ukryj]
Trackery
  • udp://9.rarbg.to:2710/announce
  • udp://9.rarbg.me:2710/announce
  • http://tracker.trackerfix.com:80/announce

Brak komentarzy!

Żaden z plików nie znajduje się na serwerze. Torrenty są własnością użytkowników. Administrator serwisu nie może ponieść konsekwencji za to co użytkownicy wstawiają, lub za to co czynią na stronie. Nie możesz używać tego serwisu do rozpowszechniania lub ściągania materiałów do których nie masz odpowiednich praw lub licencji. Użytkownicy odpowiedzialni są za przestrzeganie tych zasad.
Copyright © 2016 Exi-torrentyorgs.com.pl

Najlepsze strony Torrentowe