TV / Animowany
Simpsonowie - The Simpsons (2018) [S29E16] [720p.HDTV.x264-KILLERS] [ENG]


Dodał: PRoDiGy
Data dodania:
2018-04-16 15:52:48
Rozmiar: 379.61 MB
Ostat. aktualizacja:
2018-04-16 15:52:56
Seedów: 1374
Peerów: 112


Komentarze: 0

...( Info )...

tytuł polski .... Simpsonowie
tytuł oryginalny .... The Simpsons
produkcja .... USA
gatunek .... Animacja, Komedia
reżyseria .... Brad Bird, Pete Michels
scenariusz .... Dennis Snee, Jeffrey Ventimilia
muzyka .... Mick Jagger, Arthur B. Rubinstein
na podstawie .... Edgar Allan Poe
pierwsza emisja .... stacja telewizyjna FOX
premiera .... 1989-12-17 (Świat)
od lat .... 12
przykładowy czas trwania .... 0:21:10 min

...( O filmie )...

Filmweb: 8.0/10 ( 69.910 głosów) ( 11.300 chce zobaczyć)
http://www.filmweb.pl/serial/Simpsonowie-1989-87960

IMDb: 8.8/10 ( 297.354 głosów) ( 730 chce zobaczyć)
http://www.imdb.com/title/tt0096697/

YouTube - Trailer
https://www.youtube.com/watch?v=PulHR2LfPVk

...( Opis )...

Simpsonowie to pozornie przeciętna, współczesna rodzina mieszkająca na przedmieściach amerykańskiego miasteczka Springfield. W jej skład wchodzą:
- niezdarny Homer - pracuje w elektrowni atomowej jako kontroler bezpieczeństwa w sektorze 7G, gdzie przez większość czasu śpi. Poza pracą odwiedza Bar Moe's, a w domu najczęściej śpi, je lub ogląda telewizję.
- Marge - kochająca i troskliwa matka, starająca się utrzymać spokój w rodzinie, jest gospodynią domową, każdego dnia sprząta, gotuje, zajmuje się dziećmi.
- nieznośny 10-latek Bart - najstarszy ze swojego rodzeństwa. Uczęszcza do czwartej klasy springfieldskiej podstawówki. Bart ma talent do ładowania się w kłopoty. Nie należy do szkolnych prymusów, ma duże problemy w nauce, chociaż jest on bez wątpienia bardzo inteligentny. Uwielbia dokuczać szkolnym kujonom i robić wszystko to, co choć trochę jest śmieszne...
- bystra, filozofująca 8-latka Lisa - najmądrzejsza w rodzince. Jest uczennicą drugiej klasy podstawowej i to z bardzo dobrymi wynikami.
- Maggie - najmłodsza i najnormalniejsza z rodzinki, nie robi prawie nic poza ssaniem smoczka.

...( Obsada )...

Dan Castellaneta - Homer Simpson / Barney Gumble / Abraham 'Dziadek' Simpson / Klaun Krusty / Burmistrz Quimby / Hans Moleman / Woźny Willie / Pomocnik Mel / Pomocnik Świętego Mikołaja / Śnieżynka II / Poharatka / Kodos / Louie / Marty / Charlie / Artie Ziff / Kapitan Lance (różne głosy)

Julie Kavner - Marge Simpson / Patty Bouvier / Selma Bouvier / Jacqueline Bouvier / Ciotka Gladys (różne głosy)

Harry Shearer - Dyrektor Seymour Skinner / Ned Flanders / Waylon Smithers / Montgomery Burns / Kent Brockman / Wielebny Lovejoy / Dr Julius Hibbert / Lenny Leonard / Rainier Wolfcastle / Otto Mann / Zdrapek / Jasper / Kang / Eddie / Pan Largo / Dr Marvin Monroe (różne głosy)

Hank Azaria - Moe Szyslak / Komisarz Clancy Wiggum / Lou / Apu Nahasapeemapetilon / Komiksiarz / Cletus / Profesor Frink / Dr Nick Riviera / Carl / Snake / Kirk Van Houten / Kapitan McCallister / Kurator Chalmers / Duffman / Disco Stu / Drederick Tatum / Frank Grimes (różne głosy)

Pamela Hayden - Milhouse Van Houten / Todd Flanders / Rod Flanders / Jimbo Jones / Martin Prince / Sarah Wiggum / Patches / Ham (różne głosy)

Tress MacNeille - Jimbo Jones / Agnes Skinner / Dolph / Szalona Kociara / Bernice Hibbert / Lindsay Neagle / Brandine / Pani Muntz / Spud / Manjula (różne głosy)

...( Dane Techniczne )...

Przykładowe DANE TECHNICZNE jednego odcinka;

Video
ID : 1
Format : AVC
Format/Info : Advanced Video Codec
Format profile : High@L4.1
Format settings : CABAC / 5 Ref Frames
Format settings, CABAC : Yes
Format settings, RefFrames : 5 frames
Codec ID : V_MPEG4/ISO/AVC
Duration : 21 min 5 s
Bit rate : 2 188 kb/s
Width : 1 280 pixels
Height : 720 pixels
Display aspect ratio : 16:9
Frame rate mode : Constant
Frame rate : 23.976 (24000/1001) FPS
Color space : YUV
Chroma subsampling : 4:2:0
Bit depth : 8 bits
Scan type : Progressive
Bits/(Pixel*Frame) : 0.099
Stream size : 330 MiB (83%)
Writing library : x264 core 152 r2851 ba24899
Encoding settings : cabac=1 / ref=5 /
Default : Yes
Forced : No
Color range : Limited
Matrix coefficients : BT.709

Audio
ID : 2
Format : AC-3
Format/Info : Audio Coding 3
Format settings, Endianness : Big
Codec ID : A_AC3
Duration : 21 min 5 s
Bit rate mode : Constant
Bit rate : 384 kb/s
Channel(s) : 6 channels
Channel positions : Front: L C R, Side: L R, LFE
Sampling rate : 48.0 kHz
Frame rate : 31.250 FPS (1536 SPF)
Bit depth : 16 bits
Compression mode : Lossy
Stream size : 57.9 MiB (15%)
Service kind : Complete Main
Default : Yes
Forced : No

Lista plików Show/Hide [Pokaż/Ukryj]
Trackery
  • udp://9.rarbg.to:2710/announce
  • udp://9.rarbg.me:2710/announce
  • http://tracker.trackerfix.com:80/announce

Brak komentarzy!

Żaden z plików nie znajduje się na serwerze. Torrenty są własnością użytkowników. Administrator serwisu nie może ponieść konsekwencji za to co użytkownicy wstawiają, lub za to co czynią na stronie. Nie możesz używać tego serwisu do rozpowszechniania lub ściągania materiałów do których nie masz odpowiednich praw lub licencji. Użytkownicy odpowiedzialni są za przestrzeganie tych zasad.
Copyright © 2016 Exi-torrentyorgs.com.pl

Najlepsze strony Torrentowe