TV / Thriller
Kruk. Szepty słychać po zmroku S01E05 [1080p.HDTV.H.264.AC3] [PL]


Dodał: Lukarusi
Data dodania:
2018-04-16 16:15:26
Rozmiar: 2.80 GB
Ostat. aktualizacja:
2018-04-17 00:05:02
Seedów: 467
Peerów: 327


Komentarze: 0

Info:

produkcja: Polska
gatunek: Thriller
reżyseria: Maciej Pieprzyca
scenariusz: Jakub Korolczuk
muzyka: Bartosz Chajdecki
zdjęcia: Jan Holoubek
czas trwania: ok. 50 min.

Opis:

Na Podlasiu dochodzi do porwania nastoletniego chłopca. Adam Kruk, inspektor łódzkiego wydziału kryminalnego zostaje w tym samym czasie oddelegowany do Białegostoku. Po latach wraca do miasta, w którym dorastał, gdzie będzie musiał się zmierzyć nie tylko ze sprawą porwanego chłopca, ale także z mroczną stroną swojej przeszłości.

Obsada:

Michał Żurawski
Cezary Łukaszewicz
Katarzyna Wajda
Andrzej Zaborski
Anna Nehrebecka
Jerzy Schejbal
Marcin Bosak
Mariusz Jakus

Dane techniczne:

Format : Matroska
Format version : Version 4 / Version 2
File size : 2.80 GiB
Duration : 49 min 51 s
Overall bit rate : 8 050 kb/s
Encoded date : UTC 2018-04-16 14:05:42

Video
ID : 1
Format : AVC
Format/Info : Advanced Video Codec
Format profile : Baseline@L4
Format settings, CABAC : No
Format settings, RefFrames : 1 frame
Format settings, GOP : M=1, N=3
Codec ID : V_MPEG4/ISO/AVC
Duration : 49 min 51 s
Bit rate : 7 856 kb/s
Width : 1 920 pixels
Height : 1 080 pixels
Display aspect ratio : 16:9
Frame rate mode : Constant
Frame rate : 25.000 FPS
Color space : YUV
Chroma subsampling : 4:2:0
Bit depth : 8 bits
Scan type : Progressive
Bits/(Pixel*Frame) : 0.152
Stream size : 2.74 GiB (98%)

Audio
ID : 2
Format : AC-3
Format/Info : Audio Coding 3
Format settings, Endianness : Big
Codec ID : A_AC3
Duration : 49 min 51 s
Bit rate mode : Constant
Bit rate : 192 kb/s
Channel(s) : 2 channels
Channel positions : Front: L R
Sampling rate : 48.0 kHz
Frame rate : 31.250 FPS (1536 SPF)
Bit depth : 16 bits
Compression mode : Lossy
Stream size : 68.5 MiB (2%)
Language : Polish
Service kind : Complete Main

Lista plików Show/Hide [Pokaż/Ukryj]
Trackery
  • http://tracker.vanitycore.co:6969/announce
  • udp://shadowshq.eddie4.nl:6969/announce
  • udp://eddie4.nl:6969/announce
  • udp://tracker.leechers-paradise.org:6969/announce
  • http://agusiq-torrents.pl:6969/announce
  • udp://9.rarbg.me:2740/announce
  • udp://9.rarbg.com:2800/announce
  • http://tracker.torrentyorg.pl/announce
  • http://tracker.tfile.me/announce
  • udp://torrent.gresille.org:80/announce
  • http://tracker.filetracker.pl:8089/announce
  • udp://poloniumsurfer.tk:6969/announce
  • udp://tracker.glotorrents.com:6969/announce
  • udp://tracker.openbittorrent.com:80/announce
  • udp://sugoi.pomf.se:80/announce
  • udp://tracker.pomf.se:80/announce
  • udp://10.rarbg.com/announce
  • http://mgtracker.org:2710/announce
  • udp://tracker.prq.to/announce
  • udp://tracker.torrentbay.to:6969/announce
  • udp://tracker.istole.it:80/announce
  • udp://exodus.desync.com:6969/announce
  • http://retracker.omsk.ru:2710/announce
  • udp://tracker.publicbt.com/announce
  • udp://t1.pow7.com/announce

Brak komentarzy!

Żaden z plików nie znajduje się na serwerze. Torrenty są własnością użytkowników. Administrator serwisu nie może ponieść konsekwencji za to co użytkownicy wstawiają, lub za to co czynią na stronie. Nie możesz używać tego serwisu do rozpowszechniania lub ściągania materiałów do których nie masz odpowiednich praw lub licencji. Użytkownicy odpowiedzialni są za przestrzeganie tych zasad.
Copyright © 2016 Exi-torrentyorgs.com.pl

Najlepsze strony Torrentowe