TV / Dramat
Billions S03E04 - Hell of a Ride [720p.AMZN.WEB-DL.H.264.AC3] [Lektor PL]


Dodał: Lukarusi
Data dodania:
2018-04-16 17:58:15
Rozmiar: 510.54 MB
Ostat. aktualizacja:
2018-04-17 16:49:52
Seedów: 168
Peerów: 27


Komentarze: 1

Info:

produkcja: USA
gatunek: Dramat
scenariusz: Andrew Ross Sorkin, Brian Koppelman, David Levien
reżyseria: Neil Burger, James Foley, Scott Hornbacher, Susanna White
zdjęcia: Radium Cheung, Jake Polonsky
muzyka: Eskmo
czas trwania: ok. 57 min.

Opis:

Serial Billions opowiada o nietypowej relacji łączącej surowego prokuratora, Chucka Rhoadesa, oraz błyskotliwego i ambitnego króla funduszu hedgingowego, Bobby’ego "Axe" Axelroda.

Obsada:

Damian Lewis - Bobby "Axe" Axelrod
Paul Giamatti - Chuck Rhodes
Maggie Siff - Wendy Rhoades
David Costabile - Mike "Wags" Wagner
Condola Rashad - Kate Sacher
Malin Åkerman - Lara Axelrod
Toby Leonard Moore - Bryan Connerty
Kelly AuCoin - "Dollar" Bill Stearn

Dane techniczne:

Format : Matroska
Format version : Version 4 / Version 2
File size : 511 MiB
Duration : 57 min 21 s
Overall bit rate mode : Variable
Overall bit rate : 1 244 kb/s
Encoded date : UTC 2018-04-16 15:46:25

Video
ID : 1
Format : AVC
Format/Info : Advanced Video Codec
Format profile : High@L3.1
Format settings, CABAC : Yes
Format settings, RefFrames : 5 frames
Codec ID : V_MPEG4/ISO/AVC
Duration : 57 min 21 s
Bit rate mode : Variable
Bit rate : 859 kb/s
Maximum bit rate : 4 500 kb/s
Width : 1 280 pixels
Height : 720 pixels
Display aspect ratio : 16:9
Frame rate mode : Constant
Frame rate : 23.976 (24000/1001) FPS
Color space : YUV
Chroma subsampling : 4:2:0
Bit depth : 8 bits
Scan type : Progressive
Bits/(Pixel*Frame) : 0.039
Stream size : 352 MiB (69%)
Color range : Limited
Color primaries : BT.709
Transfer characteristics : BT.709
Matrix coefficients : BT.709

Audio
ID : 2
Format : AC-3
Format/Info : Audio Coding 3
Format settings, Endianness : Big
Codec ID : A_AC3
Duration : 57 min 21 s
Bit rate mode : Constant
Bit rate : 384 kb/s
Channel(s) : 2 channels
Channel positions : Front: L R
Sampling rate : 48.0 kHz
Frame rate : 31.250 FPS (1536 SPF)
Bit depth : 16 bits
Compression mode : Lossy
Stream size : 158 MiB (31%)
Language : Polish
Service kind : Complete Main

Lista plików Show/Hide [Pokaż/Ukryj]
Trackery
  • udp://tracker.leechers-paradise.org:6969/announce
  • udp://shadowshq.eddie4.nl:6969/announce
  • udp://eddie4.nl:6969/announce
  • http://tracker.vanitycore.co:6969/announce
  • udp://9.rarbg.com:2800/announce
  • udp://9.rarbg.me:2740/announce
  • http://tracker.torrentyorg.pl/announce
  • http://tracker.tfile.me/announce
  • udp://torrent.gresille.org:80/announce
  • http://tracker.filetracker.pl:8089/announce
  • udp://tracker.glotorrents.com:6969/announce
  • udp://tracker.pomf.se:80/announce
  • udp://10.rarbg.com/announce
  • udp://tracker.openbittorrent.com:80/announce
  • udp://sugoi.pomf.se:80/announce
  • udp://poloniumsurfer.tk:6969/announce
  • http://mgtracker.org:2710/announce
  • udp://tracker.istole.it:80/announce
  • udp://tracker.prq.to/announce
  • udp://tracker.torrentbay.to:6969/announce
  • udp://exodus.desync.com:6969/announce
  • udp://tracker.publicbt.com/announce
  • http://agusiq-torrents.pl:6969/announce
  • http://retracker.omsk.ru:2710/announce
  • udp://t1.pow7.com/announce

<< Poprzednia      Następna >>
1 - 1

Dodał: omenusss Data: 2018-04-20 23:55:51

czy moglbym prosic o wstawienie najnowszych odcinkow DOLINY KRZEMOWEJ???

1 - 1
<< Poprzednia      Następna >>

Żaden z plików nie znajduje się na serwerze. Torrenty są własnością użytkowników. Administrator serwisu nie może ponieść konsekwencji za to co użytkownicy wstawiają, lub za to co czynią na stronie. Nie możesz używać tego serwisu do rozpowszechniania lub ściągania materiałów do których nie masz odpowiednich praw lub licencji. Użytkownicy odpowiedzialni są za przestrzeganie tych zasad.
Copyright © 2016 Exi-torrentyorgs.com.pl

Najlepsze strony Torrentowe